B站“大会员”1080P 实际画质探究

最近B站启用了“大会员”业务,其中“大会员”有专享的1080P。我很好奇这个1080P,所以决定来探究一下这个1080P的实际画质。另外,如果大家发现下面的内容有什么错误的地方,欢迎大家指正。

首先,这里仅讨论这个1080P的画质,然后说明一下实际的操作方法。为了保持“大会员1080P”的原汁原味,所以番剧的分段我就不做合并,除了使用PotPlayer把详细参数Po上来外,还有就是使用PotPlayer截取源画面(原本想用Pr来提取的,无奈把分段视频丢进Pr里报格式不支持╮(╯_╰)╭),用肉眼来实际感受一下(毕竟最终咱们还是要用眼睛看番嘛(〜 ̄△ ̄)〜)
(PS:截图的产生的“误差”还是有的,至少把视频帧编码成JPG输出,理论上就会有损失,(还有就是网页上的图片不宜太大)还有玄学的色彩问题(我的屏幕只有45%NTSC→_→),所以这里所有的图片仅供参考

这里对画质的探究,我就采用比较简单且能较大限度把误差的影响降低的对比法。  计划分别对比:
BiliBili番剧720P vs BiliBili番剧1080PBiliBili番剧1080P vs UP主上传的番剧BiliBili番剧1080P vs 其他视频网站1080P BiliBili番剧1080P vs 字幕/压制组提供的1080P

由于详细参数比较亢长,重要参数有提出来做对比表可以直接查看,详细参数则默认收起,有需要查看手动点开即可。

BiliBili番剧720P vs BiliBili番剧1080P

  • 既然是大会员专享,那么大家肯定很关心相对原来的720P(缓存的“超清”一般是720P)到底提高了多少,这里就拿出两部新番,和一部旧番做对比。
  • 《斯特拉的魔法》第一集 1080P vs 720P

        • 先Po参数:
        • 1080P:
    General
    Complete name                  : F:\工程\Bili1080P检测\96238【斯特拉的魔法1】\lua.mp4.bapi.bd\0.mp4
    Format                         : Flash Video
    File size                      : 169 MiB
    Duration                       : 6 min 8 s
    Overall bit rate               : 3 855 kb/s
    Writing application            : Coded by New Bilibili Transcoder v1.2
    Tagging application            : Yet Another Metadata Injector for FLV - Version 1.9
    
    Video
    Format                         : AVC
    Format/Info                    : Advanced Video Codec
    Format profile                 : High@L4.1
    Format settings, CABAC         : Yes
    Format settings, ReFrames      : 4 frames
    Codec ID                       : 7
    Duration                       : 6 min 8 s
    Bit rate                       : 3 569 kb/s
    Width                          : 1 920 pixels
    Height                         : 1 080 pixels
    Display aspect ratio           : 16:9
    Frame rate mode                : Constant
    Frame rate                     : 25.000 FPS
    Color space                    : YUV
    Chroma subsampling             : 4:2:0
    Bit depth                      : 8 bits
    Scan type                      : Progressive
    Bits/(Pixel*Frame)             : 0.069
    Stream size                    : 160 MiB (95%)
    Writing library                : Lagranji Encoder v2.3.3
    
    Audio
    Format                         : AAC
    Format/Info                    : Advanced Audio Codec
    Format profile                 : LC
    Codec ID                       : 10
    Duration                       : 6 min 8 s
    Bit rate                       : 188 kb/s
    Channel(s)                     : 2 channels
    Channel positions              : Front: L R
    Sampling rate                  : 44.1 kHz
    Frame rate                     : 43.066 FPS (1024 spf)
    Compression mode               : Lossy
    Delay relative to video        : 120 ms
    Stream size                    : 8.62 MiB (5%)
    
        • 720P:
    General
    Complete name                  : F:\工程\Bili1080P检测\s_5540【斯特拉的魔法】\96238\lua.mp4.bapi.2\0.mp4
    Format                         : Flash Video
    File size                      : 70.1 MiB
    Duration                       : 5 min 34 s
    Overall bit rate               : 1 755 kb/s
    Writing application            : Coded by New Bilibili Transcoder v1.2
    Tagging application            : Yet Another Metadata Injector for FLV - Version 1.9
    
    Video
    Format                         : AVC
    Format/Info                    : Advanced Video Codec
    Format profile                 : High@L4
    Format settings, CABAC         : Yes
    Format settings, ReFrames      : 8 frames
    Codec ID                       : 7
    Duration                       : 5 min 34 s
    Bit rate                       : 1 536 kb/s
    Width                          : 1 280 pixels
    Height                         : 720 pixels
    Display aspect ratio           : 16:9
    Frame rate mode                : Constant
    Frame rate                     : 25.000 FPS
    Color space                    : YUV
    Chroma subsampling             : 4:2:0
    Bit depth                      : 8 bits
    Scan type                      : Progressive
    Bits/(Pixel*Frame)             : 0.067
    Stream size                    : 62.1 MiB (89%)
    Writing library                : x264 core 146
    Encoding settings              : cabac=1 / ref=8 / deblock=1:-1:-1 / analyse=0x3:0x133 / me=umh / subme=10 / psy=1 / psy_rd=1.00:0.15 / mixed_ref=1 / me_range=16 / chroma_me=1 / trellis=2 / 8x8dct=1 / cqm=0 / deadzone=21,11 / fast_pskip=1 / chroma_qp_offset=-3 / threads=36 / lookahead_threads=4 / sliced_threads=0 / nr=0 / decimate=1 / interlaced=0 / bluray_compat=0 / stitchable=1 / constrained_intra=0 / bframes=4 / b_pyramid=2 / b_adapt=2 / b_bias=0 / direct=3 / weightb=1 / open_gop=0 / weightp=2 / keyint=250 / keyint_min=25 / scenecut=40 / intra_refresh=0 / rc_lookahead=250 / rc=2pass / mbtree=1 / bitrate=1536 / ratetol=1.0 / qcomp=0.60 / qpmin=0 / qpmax=69 / qpstep=4 / cplxblur=20.0 / qblur=0.5 / ip_ratio=1.40 / aq=2:1.00
    
    Audio
    Format                         : AAC
    Format/Info                    : Advanced Audio Codec
    Format profile                 : LC
    Codec ID                       : 10
    Duration                       : 5 min 34 s
    Bit rate                       : 188 kb/s
    Channel(s)                     : 2 channels
    Channel positions              : Front: L R
    Sampling rate                  : 44.1 kHz
    Frame rate                     : 43.066 FPS (1024 spf)
    Compression mode               : Lossy
    Delay relative to video        : 80 ms
    Stream size                    : 7.84 MiB (11%)
    
      • 然后,为了能更直观看出参数上的差别,这将比较重要的几个参数整理成表。
        项目 大小 分辨率 编码 视频码率 Writing application
        720P 297 MB 1280 x 720 AVC_High@L4 1536 kb/s Coded by New Bilibili Transcoder v1.2
        1080P 462 MB 1920 x 1080 AVC_High@L4.1 3569 kb/s Coded by New Bilibili Transcoder v1.2
    • 然后上对比图(均是使用PotPlayer截取源画面,定位到关键帧)(PS:虽然以帧来定位了,然而画面还是有些许的偏差(看地砖网格)不过这点误差应该不怎么影响对比画质了)

      bili《斯特拉的魔法》720P(定位到2392帧)

    • 个人评价:从大图上看,画质的差别很难察觉到,不过颜色的差别还是能感受到一点点差别。至于细节上的差别就肉眼可见了,1080P的画面更锐利,边界更清晰,1080P的码率的提升也就体现在这里了。
  • 《夏目友人账 第五季》第一集 1080P vs 720P

      • 先Po参数:
      • 1080P:
    General
    Complete name                  : F:\工程\Bili1080P检测\s_5550【夏目友人帐 伍】\96035\lua.mp4.bapi.bd\0.mp4
    Format                         : Flash Video
    File size                      : 138 MiB
    Duration                       : 5 min 54 s
    Overall bit rate               : 3 252 kb/s
    Writing application            : Coded by New Bilibili Transcoder v1.2
    Tagging application            : Yet Another Metadata Injector for FLV - Version 1.9
    
    Video
    Format                         : AVC
    Format/Info                    : Advanced Video Codec
    Format profile                 : High@L4.1
    Format settings, CABAC         : Yes
    Format settings, ReFrames      : 4 frames
    Codec ID                       : 7
    Duration                       : 5 min 54 s
    Bit rate                       : 2 979 kb/s
    Nominal bit rate               : 5 233 kb/s
    Width                          : 1 920 pixels
    Height                         : 1 080 pixels
    Display aspect ratio           : 16:9
    Frame rate mode                : Constant
    Frame rate                     : 23.976 (23976/1000) FPS
    Original frame rate            : 23.976 (24000/1001) FPS
    Color space                    : YUV
    Chroma subsampling             : 4:2:0
    Bit depth                      : 8 bits
    Scan type                      : Progressive
    Bits/(Pixel*Frame)             : 0.060
    Stream size                    : 129 MiB (94%)
    Writing library                : x264 core 148 r2638kMod 7599210
    Encoding settings              : cabac=1 / ref=4 / deblock=1:1:1 / analyse=0x3:0x113 / me=hex / subme=7 / psy=1 / fade_compensate=0.00 / psy_rd=0.40:0.00 / mixed_ref=1 / me_range=16 / chroma_me=1 / trellis=1 / 8x8dct=1 / cqm=0 / deadzone=21,11 / fast_pskip=1 / chroma_qp_offset=-2 / threads=24 / lookahead_threads=4 / sliced_threads=0 / nr=0 / decimate=1 / interlaced=0 / bluray_compat=0 / stitchable=1 / constrained_intra=0 / fgo=0 / bframes=5 / b_pyramid=2 / b_adapt=1 / b_bias=0 / direct=1 / weightb=1 / open_gop=0 / weightp=2 / keyint=250 / keyint_min=23 / scenecut=40 / intra_refresh=0 / rc_lookahead=40 / rc=2pass / mbtree=1 / bitrate=5233 / ratetol=1.0 / qcomp=0.60 / qpmin=0 / qpmax=69 / qpstep=4 / cplxblur=20.0 / qblur=0.5 / ip_ratio=1.40 / aq=1:0.60
    
    Audio
    Format                         : AAC
    Format/Info                    : Advanced Audio Codec
    Format profile                 : LC
    Codec ID                       : 10
    Duration                       : 5 min 54 s
    Bit rate                       : 188 kb/s
    Channel(s)                     : 2 channels
    Channel positions              : Front: L R
    Sampling rate                  : 48.0 kHz
    Frame rate                     : 46.875 FPS (1024 spf)
    Compression mode               : Lossy
    Delay relative to video        : 125 ms
    Stream size                    : 8.32 MiB (6%)
    
      • 720P:
    General
    Complete name                  : F:\工程\Bili1080P检测\s_5550【夏目友人帐 伍】\96035\lua.mp4.bapi.9\0.mp4
    Format                         : Flash Video
    File size                      : 76.1 MiB
    Duration                       : 6 min 11 s
    Overall bit rate               : 1 718 kb/s
    Writing application            : Coded by New Bilibili Transcoder v1.2
    Tagging application            : Yet Another Metadata Injector for FLV - Version 1.9
    
    Video
    Format                         : AVC
    Format/Info                    : Advanced Video Codec
    Format profile                 : High@L4
    Format settings, CABAC         : Yes
    Format settings, ReFrames      : 8 frames
    Codec ID                       : 7
    Duration                       : 6 min 11 s
    Bit rate                       : 1 536 kb/s
    Width                          : 1 280 pixels
    Height                         : 720 pixels
    Display aspect ratio           : 16:9
    Frame rate mode                : Constant
    Frame rate                     : 23.976 (23976/1000) FPS
    Color space                    : YUV
    Chroma subsampling             : 4:2:0
    Bit depth                      : 8 bits
    Scan type                      : Progressive
    Bits/(Pixel*Frame)             : 0.070
    Stream size                    : 67.3 MiB (88%)
    Writing library                : x264 core 146
    Encoding settings              : cabac=1 / ref=8 / deblock=1:-1:-1 / analyse=0x3:0x133 / me=umh / subme=10 / psy=1 / psy_rd=1.00:0.15 / mixed_ref=1 / me_range=16 / chroma_me=1 / trellis=2 / 8x8dct=1 / cqm=0 / deadzone=21,11 / fast_pskip=1 / chroma_qp_offset=-3 / threads=36 / lookahead_threads=4 / sliced_threads=0 / nr=0 / decimate=1 / interlaced=0 / bluray_compat=0 / stitchable=1 / constrained_intra=0 / bframes=4 / b_pyramid=2 / b_adapt=2 / b_bias=0 / direct=3 / weightb=1 / open_gop=0 / weightp=2 / keyint=240 / keyint_min=24 / scenecut=40 / intra_refresh=0 / rc_lookahead=240 / rc=2pass / mbtree=1 / bitrate=1536 / ratetol=1.0 / qcomp=0.60 / qpmin=0 / qpmax=69 / qpstep=4 / cplxblur=20.0 / qblur=0.5 / ip_ratio=1.40 / aq=2:1.00
    
    Audio
    Format                         : AAC
    Format/Info                    : Advanced Audio Codec
    Format profile                 : LC
    Codec ID                       : 10
    Duration                       : 6 min 11 s
    Bit rate                       : 188 kb/s
    Channel(s)                     : 2 channels
    Channel positions              : Front: L R
    Sampling rate                  : 48.0 kHz
    Frame rate                     : 46.875 FPS (1024 spf)
    Compression mode               : Lossy
    Delay relative to video        : 83 ms
    Stream size                    : 8.72 MiB (11%)
    
    • 对比表:
      项目 大小 分辨率 编码 视频码率 Writing application
      720P 295 MB 1280 x 720 AVC_High@L4 1536 kb/s Coded by New Bilibili Transcoder v1.2
      1080P 462 MB 1920 x 1080 AVC_High@L4.1 2979 kb/s Coded by New Bilibili Transcoder v1.2
    • 对比图:

      bili《友人账》720P(定位到4695帧)

    • 个人评价:嗯,大图对比和上面的感觉一样。而细节对比是更锐利了,然而感受出来画质提升的并没有上面的来得大。

BiliBili番剧1080P vs UP主上传的番剧

  • 那么,大会员的1080P和UP主们上传的1080P视频相比之下如何呢?额,要找一个相同的视频内容做对比其实真不容易。大会员的1080P主要在番剧,而且是新番,本身就有版权保护,UP基本无法把新番私传,更别说1080P了。那就只能去旧番找了,然而bili收编的旧番有1080P的并不多,并且UP上传的1080P视频在二压机制下能保持1080P更是少之又少。。。qwq。。借助的弹幕的指引,终于找到了UP上传的完整《狼辛》并且1080P存活的资源!
  • bili《狼与香辛料 第一季》第一集1080P vs  UP上传1080P完整版

      • 先Po参数:
      • Bili 1080P:
    General
    Complete name                  : F:\工程\Bili1080P检测\s_1071【bili狼与香辛料】\34805\lua.mp4.bapi.bd\0.mp4
    Format                         : Flash Video
    File size                      : 113 MiB
    Duration                       : 5 min 45 s
    Overall bit rate               : 2 749 kb/s
    Writing application            : Coded by New Bilibili Transcoder v1.2
    Tagging application            : Yet Another Metadata Injector for FLV - Version 1.9
    
    Video
    Format                         : AVC
    Format/Info                    : Advanced Video Codec
    Format profile                 : High@L4
    Format settings, CABAC         : Yes
    Format settings, ReFrames      : 4 frames
    Codec ID                       : 7
    Duration                       : 5 min 45 s
    Bit rate                       : 2 488 kb/s
    Width                          : 1 920 pixels
    Height                         : 1 080 pixels
    Display aspect ratio           : 16:9
    Frame rate mode                : Constant
    Frame rate                     : 23.976 (23976/1000) FPS
    Original frame rate            : 23.976 (24000/1001) FPS
    Color space                    : YUV
    Chroma subsampling             : 4:2:0
    Bit depth                      : 8 bits
    Scan type                      : Progressive
    Bits/(Pixel*Frame)             : 0.050
    Stream size                    : 105 MiB (93%)
    Writing library                : Lagranji Encoder v2.3.3
    
    Audio
    Format                         : AAC
    Format/Info                    : Advanced Audio Codec
    Format profile                 : LC
    Codec ID                       : 10
    Duration                       : 5 min 45 s
    Bit rate                       : 188 kb/s
    Channel(s)                     : 2 channels
    Channel positions              : Front: L R
    Sampling rate                  : 48.0 kHz
    Frame rate                     : 46.875 FPS (1024 spf)
    Compression mode               : Lossy
    Delay relative to video        : 83 ms
    Stream size                    : 8.11 MiB (7%)
    
    
    
      • UP主 1080P:
    General
    Complete name                  : F:\工程\Bili1080P检测\【BDRip】狼与香辛料I【漫游字幕组】_完结动画_番剧_bilibili_哔哩哔哩弹幕视频网.flv
    Format                         : Flash Video
    File size                      : 312 MiB
    Duration                       : 23 min 50 s
    Overall bit rate               : 1 829 kb/s
    Tagging application            : Yet Another Metadata Injector for FLV - Version 1.8
    
    Video
    Format                         : AVC
    Format/Info                    : Advanced Video Codec
    Format profile                 : High@L4
    Format settings, CABAC         : Yes
    Format settings, ReFrames      : 4 frames
    Codec ID                       : 7
    Duration                       : 23 min 50 s
    Bit rate                       : 1 500 kb/s
    Width                          : 1 920 pixels
    Height                         : 1 080 pixels
    Display aspect ratio           : 16:9
    Frame rate mode                : Constant
    Frame rate                     : 23.976 (23976/1000) FPS
    Color space                    : YUV
    Chroma subsampling             : 4:2:0
    Bit depth                      : 8 bits
    Scan type                      : Progressive
    Bits/(Pixel*Frame)             : 0.030
    Stream size                    : 256 MiB (82%)
    Writing library                : x264 core 148 r2597+52 4ed4a81 xiaowan [8-bit@all X86_64]
    Encoding settings              : cabac=1 / ref=4 / deblock=1:1:1 / analyse=0x3:0x133 / me=umh / subme=10 / psy=1 / fade_compensate=0.00 / psy_rd=0.30:0.00 / mixed_ref=1 / me_range=24 / chroma_me=1 / trellis=2 / 8x8dct=1 / cqm=0 / deadzone=21,11 / fast_pskip=1 / chroma_qp_offset=-2 / threads=6 / lookahead_threads=1 / sliced_threads=0 / nr=0 / decimate=1 / interlaced=0 / bluray_compat=0 / constrained_intra=0 / fgo=0 / bframes=3 / b_pyramid=2 / b_adapt=2 / b_bias=0 / direct=3 / weightb=1 / open_gop=0 / weightp=2 / keyint=240 / keyint_min=1 / scenecut=60 / intra_refresh=0 / rc_lookahead=60 / rc=2pass / mbtree=1 / bitrate=1500 / ratetol=1.0 / qcomp=0.50 / qpmin=0:0:0 / qpmax=69:69:69 / qpstep=4 / cplxblur=20.0 / qblur=0.5 / ip_ratio=1.40 / aq=2:0.80 / aq-sensitivity=10.00 / aq-factor=1.00:1.00:1.00 / aq2=0 / aq3=0
    Color range                    : Limited
    Matrix coefficients            : BT.709
    
    Audio
    Format                         : AAC
    Format/Info                    : Advanced Audio Codec
    Format profile                 : LC
    Codec ID                       : 10
    Duration                       : 23 min 50 s
    Bit rate                       : 313 kb/s
    Channel(s)                     : 2 channels
    Channel positions              : Front: L R
    Sampling rate                  : 48.0 kHz
    Frame rate                     : 46.875 FPS (1024 spf)
    Compression mode               : Lossy
    Delay relative to video        : 83 ms
    Stream size                    : 55.3 MiB (18%)
    
    
    
    • 对比表:
      项目 大小 分辨率 编码 视频码率 Writing application
      Bili官番 385 MB 1920 x 1080 AVC_High@L4 2488 kb/s Coded by New Bilibili Transcoder v1.2
      UP上传 311 MB 1920 x 1080 AVC_High@L4 1500 kb/s
    • 嗯,可以看出虽然UP的视频保住了1080P,但1500的码率应该是被二压过了。
    • 那么。来看一下实际画质表现吧。(就懒得写定位信息了哈(〜 ̄△ ̄)〜)

      Bili官番(大会员1080P)

    • 可能是采用的片源不同,所以颜色上的差别还是挺大的,当然也可能是双方的压制参数差得比较多。画质倒是差得不多,不过B站的噪点好像多了一点。
  •  那么再看看其他UP主的1080P视频如何。由于没法找个对比,所以大家就感受一下就好(点击跳转至源视频页面
    • 因为没了对比,所以用以下操作来呈现细节
      1. 用PS切片工具将纵横各切5等分,总25等分,取其中一份,就相当于放大了5倍
      2. 为了放大细节(方便观察),再将上面取的那一份拉伸为1080P。然后再Po上来。
    • 《1080P源 物语系列 OPandED合集 TV/WEB/BD/NC 全系列【OPANDED君】(至伤物语)138P》—— P6
        • PS:这一视频很多P都没保住1080P,这一P是保住1080P的。
        • 详细参数:
      General
      Complete name                  : F:\工程\Bili1080P检测\3694689【萌狼第一季NCOP】\1\lua.mp4.bapi.9\0.mp4
      Format                         : Flash Video
      File size                      : 21.1 MiB
      Duration                       : 1 min 30 s
      Overall bit rate               : 1 966 kb/s
      Writing application            : Created by New Bilibili Transcoder
      Tagging application            : Yet Another Metadata Injector for FLV - Version 1.9
      
      Video
      Format                         : AVC
      Format/Info                    : Advanced Video Codec
      Format profile                 : High@L4
      Format settings, CABAC         : Yes
      Format settings, ReFrames      : 4 frames
      Codec ID                       : 7
      Duration                       : 1 min 29 s
      Bit rate                       : 1 726 kb/s
      Width                          : 1 920 pixels
      Height                         : 1 080 pixels
      Display aspect ratio           : 16:9
      Frame rate mode                : Constant
      Frame rate                     : 24.000 FPS
      Color space                    : YUV
      Chroma subsampling             : 4:2:0
      Bit depth                      : 8 bits
      Scan type                      : Progressive
      Bits/(Pixel*Frame)             : 0.035
      Stream size                    : 18.9 MiB (90%)
      Writing library                : x264 core 148 r2597+52 4ed4a81 xiaowan [8-bit@all X86]
      Encoding settings              : cabac=1 / ref=4 / deblock=1:1:1 / analyse=0x3:0x133 / me=umh / subme=10 / psy=1 / fade_compensate=0.00 / psy_rd=0.30:0.00 / mixed_ref=1 / me_range=24 / chroma_me=1 / trellis=2 / 8x8dct=1 / cqm=0 / deadzone=21,11 / fast_pskip=1 / chroma_qp_offset=-2 / threads=12 / lookahead_threads=1 / sliced_threads=0 / nr=0 / decimate=1 / interlaced=0 / bluray_compat=0 / constrained_intra=0 / fgo=0 / bframes=3 / b_pyramid=2 / b_adapt=2 / b_bias=0 / direct=3 / weightb=1 / open_gop=0 / weightp=2 / keyint=240 / keyint_min=1 / scenecut=60 / intra_refresh=0 / rc_lookahead=60 / rc=crf / mbtree=1 / crf=22.0000 / qcomp=0.50 / qpmin=0:0:0 / qpmax=69:69:69 / qpstep=4 / ip_ratio=1.40 / aq=2:0.80 / aq-sensitivity=10.00 / aq-factor=1.00:1.00:1.00 / aq2=0 / aq3=0
      Color range                    : Limited
      Matrix coefficients            : BT.709
      
      Audio
      Format                         : AAC
      Format/Info                    : Advanced Audio Codec
      Format profile                 : LC
      Codec ID                       : 10
      Duration                       : 1 min 30 s
      Bit rate                       : 196 kb/s
      Channel(s)                     : 2 channels
      Channel positions              : Front: L R
      Sampling rate                  : 44.1 kHz
      Frame rate                     : 43.066 FPS (1024 spf)
      Compression mode               : Lossy
      Delay relative to video        : 83 ms
      Stream size                    : 2.20 MiB (10%)
      
      
      
      • 图:

        av6525704 - 大图1

    • 《[诸神字幕] 某人的目光 1080P 简中日对照》
        • (PS: 新海诚的作品果然是美Cry啊~推荐哦~(*゚▽゚)ノ)
        • 详细参数:
      General
      Complete name                  : F:\工程\Bili1080P检测\842451【[诸神字幕] 某人的目光 1080P 简中日对照】\1\lua.mp4.bapi.9\0.mp4
      Format                         : Flash Video
      File size                      : 93.0 MiB
      Duration                       : 6 min 44 s
      Overall bit rate               : 1 927 kb/s
      Writing application            : Coded by New Bilibili Transcoder v1.1
      Tagging application            : Yet Another Metadata Injector for FLV - Version 1.9
      
      Video
      Format                         : AVC
      Format/Info                    : Advanced Video Codec
      Format profile                 : High@L5.1
      Format settings, CABAC         : Yes
      Format settings, ReFrames      : 8 frames
      Codec ID                       : 7
      Duration                       : 6 min 44 s
      Bit rate                       : 1 681 kb/s
      Nominal bit rate               : 1 843 kb/s
      Width                          : 1 920 pixels
      Height                         : 1 080 pixels
      Display aspect ratio           : 16:9
      Frame rate mode                : Constant
      Frame rate                     : 29.970 (29970/1000) FPS
      Color space                    : YUV
      Chroma subsampling             : 4:2:0
      Bit depth                      : 8 bits
      Scan type                      : Progressive
      Bits/(Pixel*Frame)             : 0.027
      Stream size                    : 83.2 MiB (89%)
      Writing library                : x264 core 146
      Encoding settings              : cabac=1 / ref=8 / deblock=1:-1:-1 / analyse=0x3:0x133 / me=umh / subme=10 / psy=1 / psy_rd=1.00:0.15 / mixed_ref=1 / me_range=16 / chroma_me=1 / trellis=2 / 8x8dct=1 / cqm=0 / deadzone=21,11 / fast_pskip=1 / chroma_qp_offset=-3 / threads=72 / lookahead_threads=8 / sliced_threads=0 / nr=0 / decimate=1 / interlaced=0 / bluray_compat=0 / constrained_intra=0 / bframes=4 / b_pyramid=2 / b_adapt=2 / b_bias=0 / direct=3 / weightb=1 / open_gop=0 / weightp=2 / keyint=300 / keyint_min=30 / scenecut=40 / intra_refresh=0 / rc_lookahead=250 / rc=abr / mbtree=1 / bitrate=1843 / ratetol=1.0 / qcomp=0.50 / qpmin=0 / qpmax=69 / qpstep=4 / vbv_maxrate=3686 / vbv_bufsize=7372 / nal_hrd=none / filler=0 / ip_ratio=1.40 / aq=2:1.00
      
      Audio
      Format                         : AAC
      Format/Info                    : Advanced Audio Codec
      Format profile                 : LC
      Codec ID                       : 10
      Duration                       : 6 min 44 s
      Bit rate                       : 193 kb/s
      Channel(s)                     : 2 channels
      Channel positions              : Front: L R
      Sampling rate                  : 44.1 kHz
      Frame rate                     : 43.066 FPS (1024 spf)
      Compression mode               : Lossy
      Delay relative to video        : 33 ms
      Stream size                    : 9.70 MiB (10%)
      
      • 图:

        av842451-大图1

BiliBili番剧1080P vs 其他视频网站1080P

  • 那么对比其他网站的1080P。B站的大会员1080P如何呢?
  • 对于国内的视频网站(爱奇异等),其1080P画质也多是VIP限定。为了拿到其1080P的视频做样本,但又不想为了样本而氪金,于是,我找到了有范VIP破解插件!但是这也插件似乎没有那么万能,腾讯、乐视还有芒果TV测试后发现没法拿到他们的1080P。所以下面就只拿爱奇艺和优酷做对比。
  • BiliBili大会员1080P vs 爱奇艺VIP 1080P

    • 先说在前面,下载到爱奇艺VIP特供1080P的样本后,我整个人都 了!就《夏目5》第 1 集来说,总大小(视频分4段)比B站720P还要小!
    • 仅193 MB!!Σ( ° △ °|||)︴(插件没有搞错吧!是来自爱奇艺的源视频对吧Σ(っ °Д °;)っ)
    • 不过还是来比一比~(bili的样本还是拿前面的《夏目5》和《斯特拉的魔法》,参数什么的上面po过了这里就不再po一次了)
    • Bili《夏目友人账 第五季》第一集 1080P vs 爱奇艺《夏目友人账 第五季》 1080P:

        • 爱奇艺参数:
      General
      Complete name                  : F:\AppDownloads\Lie。猎豹下载\TEMP\夏目\QQ群:88072101.f4v
      Format                         : Flash Video
      File size                      : 56.4 MiB
      Duration                       : 6 min 2 s
      Overall bit rate               : 1 305 kb/s
      Writing application            : http://www.iqiyi.com
      Tagging application            : Yet Another Metadata Injector for FLV - Version 1.24
      
      Video
      Format                         : AVC
      Format/Info                    : Advanced Video Codec
      Format profile                 : High@L4
      Format settings, CABAC         : Yes
      Format settings, ReFrames      : 3 frames
      Codec ID                       : 7
      Duration                       : 6 min 2 s
      Bit rate                       : 1 206 kb/s
      Width                          : 1 920 pixels
      Height                         : 1 080 pixels
      Display aspect ratio           : 16:9
      Frame rate mode                : Constant
      Frame rate                     : 23.976 (23976/1000) FPS
      Original frame rate            : 23.976 (24000/1001) FPS
      Color space                    : YUV
      Chroma subsampling             : 4:2:0
      Bit depth                      : 8 bits
      Scan type                      : Progressive
      Bits/(Pixel*Frame)             : 0.024
      Stream size                    : 53.4 MiB (95%)
      Writing library                : qiyi.com vtc-test
      Color range                    : Limited
      Color primaries                : BT.709
      Transfer characteristics       : BT.709
      Matrix coefficients            : BT.709
      
      Audio
      Format                         : AAC
      Format/Info                    : Advanced Audio Codec
      Format profile                 : HE-AAC / LC
      Codec ID                       : 10
      Duration                       : 6 min 2 s
      Bit rate                       : 62.9 kb/s
      Channel(s)                     : 2 channels
      Channel positions              : Front: L R
      Sampling rate                  : 44.1 kHz / 22.05 kHz
      Frame rate                     : 21.533 FPS (1024 spf)
      Compression mode               : Lossy
      Stream size                    : 2.86 MiB (5%)
      
      • 对比表:
        项目 大小 分辨率 编码 视频码率 Writing application
        Bili官番 462 MB 1920 x 1080 AVC_High@L4.1 2979 kb/s Coded by New Bilibili Transcoder v1.2
        爱奇艺 193 MB 1920 x 1080 AVC_High@L4 1206 kb/s http://www.iqiyi.com
      • 图(PS:按之前的帧数定位会出现偏差,所以就以关键帧定位到相同时间点(精确到秒)来处理):

        爱奇艺1080P

      • 个人感觉:这里的画质似乎就没拉开多大差距了。爱奇艺的颜色对比度高一些,更清亮一些,锐度更高些,相对的,噪点也更多了。相比之下,B站的画面就稍显灰蒙蒙的,但也更为柔和。
      • 嗯,再来看第二个。
    • Bili《斯特拉的魔法》第一集 1080P vs 爱奇艺《斯特拉的魔法》 1080P:

        • 爱奇艺1080P参数:
      General
      Complete name                  : C:\Users\米柚子\Downloads\Ant Videos\1\QQ群:88072101.flv
      Format                         : Flash Video
      File size                      : 73.6 MiB
      Duration                       : 6 min 0 s
      Overall bit rate               : 1 714 kb/s
      Writing application            : http://www.iqiyi.com
      Tagging application            : Yet Another Metadata Injector for FLV - Version 1.24
      
      Video
      Format                         : AVC
      Format/Info                    : Advanced Video Codec
      Format profile                 : High@L4
      Format settings, CABAC         : Yes
      Format settings, ReFrames      : 3 frames
      Codec ID                       : 7
      Duration                       : 6 min 0 s
      Bit rate                       : 1 606 kb/s
      Width                          : 1 920 pixels
      Height                         : 1 080 pixels
      Display aspect ratio           : 16:9
      Frame rate mode                : Constant
      Frame rate                     : 25.000 FPS
      Color space                    : YUV
      Chroma subsampling             : 4:2:0
      Bit depth                      : 8 bits
      Scan type                      : Progressive
      Bits/(Pixel*Frame)             : 0.031
      Stream size                    : 70.7 MiB (96%)
      Writing library                : qiyi.com vtc-test
      Color range                    : Limited
      Color primaries                : BT.709
      Transfer characteristics       : BT.709
      Matrix coefficients            : BT.709
      
      Audio
      Format                         : AAC
      Format/Info                    : Advanced Audio Codec
      Format profile                 : HE-AAC / LC
      Codec ID                       : 10
      Duration                       : 6 min 0 s
      Bit rate                       : 62.9 kb/s
      Channel(s)                     : 2 channels
      Channel positions              : Front: L R
      Sampling rate                  : 44.1 kHz / 22.05 kHz
      Frame rate                     : 21.533 FPS (1024 spf)
      Compression mode               : Lossy
      Stream size                    : 2.85 MiB (4%)
      
      • 对比表(PS:视频有四段,所以爱奇艺的码率有四组数据,其实B站的也有多组数据,不过爱奇艺这个差距有点大,所以决定Po上来):
        项目 大小 分辨率 编码 视频码率 Writing application
        Bili官番 462MB 1920 x 1080 AVC_High@L4 3569 kb/s Coded by New Bilibili Transcoder v1.2
        爱奇艺 196MB 1920 x 1080 AVC_High@L4 1606/867/741/964 kb/s http://www.iqiyi.com
      • 图:

        爱奇艺1080P

      • 个人感觉:这里爱奇艺的锯齿比较严重些,细节的处理也比较马虎一些。并且颜色的对比度似乎调教得也不是很好。
  • BiliBili大会员1080P vs 优酷 1080P

    • Bili《我太受欢迎了该怎么办》第一集1080P vs 优酷《我太受欢迎了该怎么办》第一集1080P 

        • Bili 1080P参数:
      General
      Complete name                  : F:\工程\Bili1080P检测\bili《我太受欢迎》1080P.flv
      Format                         : Flash Video
      File size                      : 113 MiB
      Duration                       : 7 min 1 s
      Overall bit rate               : 2 254 kb/s
      Writing application            : Coded by New Bilibili Transcoder v1.2
      Tagging application            : Yet Another Metadata Injector for FLV - Version 1.9
      
      Video
      Format                         : AVC
      Format/Info                    : Advanced Video Codec
      Format profile                 : High@L4.1
      Format settings, CABAC         : Yes
      Format settings, ReFrames      : 4 frames
      Codec ID                       : 7
      Duration                       : 7 min 1 s
      Bit rate                       : 2 004 kb/s
      Width                          : 1 920 pixels
      Height                         : 1 080 pixels
      Display aspect ratio           : 16:9
      Frame rate mode                : Constant
      Frame rate                     : 23.976 (23976/1000) FPS
      Original frame rate            : 23.976 (24000/1001) FPS
      Color space                    : YUV
      Chroma subsampling             : 4:2:0
      Bit depth                      : 8 bits
      Scan type                      : Progressive
      Bits/(Pixel*Frame)             : 0.040
      Stream size                    : 103 MiB (91%)
      Writing library                : x264 core 148 r2638kMod 7599210
      Encoding settings              : cabac=1 / ref=4 / deblock=1:1:1 / analyse=0x3:0x113 / me=hex / subme=7 / psy=1 / fade_compensate=0.00 / psy_rd=0.40:0.00 / mixed_ref=1 / me_range=16 / chroma_me=1 / trellis=1 / 8x8dct=1 / cqm=0 / deadzone=21,11 / fast_pskip=1 / chroma_qp_offset=-2 / threads=24 / lookahead_threads=4 / sliced_threads=0 / nr=0 / decimate=1 / interlaced=0 / bluray_compat=0 / stitchable=1 / constrained_intra=0 / fgo=0 / bframes=5 / b_pyramid=2 / b_adapt=1 / b_bias=0 / direct=1 / weightb=1 / open_gop=0 / weightp=2 / keyint=250 / keyint_min=23 / scenecut=40 / intra_refresh=0 / rc_lookahead=40 / rc=crf / mbtree=1 / crf=21.0000 / qcomp=0.60 / qpmin=0 / qpmax=69 / qpstep=4 / ip_ratio=1.40 / aq=1:0.60
      
      Audio
      Format                         : AAC
      Format/Info                    : Advanced Audio Codec
      Format profile                 : LC
      Codec ID                       : 10
      Duration                       : 7 min 1 s
      Bit rate                       : 188 kb/s
      Channel(s)                     : 2 channels
      Channel positions              : Front: L R
      Sampling rate                  : 48.0 kHz
      Frame rate                     : 46.875 FPS (1024 spf)
      Compression mode               : Lossy
      Delay relative to video        : 83 ms
      Stream size                    : 9.89 MiB (9%)
      
        • 优酷1080P参数:
      General
      Complete name                  : F:\工程\Bili1080P检测\优酷《我太受欢迎》1080P.flv
      Format                         : Flash Video
      File size                      : 54.7 MiB
      Duration                       : 2 min 26 s
      Overall bit rate               : 3 136 kb/s
      Tagging application            : modified by youku.com in 20111202
      
      Video
      Format                         : AVC
      Format/Info                    : Advanced Video Codec
      Format profile                 : High@L4
      Format settings, CABAC         : Yes
      Format settings, ReFrames      : 3 frames
      Codec ID                       : 7
      Duration                       : 2 min 26 s
      Width                          : 1 920 pixels
      Height                         : 1 080 pixels
      Display aspect ratio           : 16:9
      Frame rate mode                : Constant
      Frame rate                     : 29.970 (29970/1000) FPS
      Color space                    : YUV
      Chroma subsampling             : 4:2:0
      Bit depth                      : 8 bits
      Scan type                      : Progressive
      
      Audio
      Format                         : AAC
      Format/Info                    : Advanced Audio Codec
      Format profile                 : LC
      Codec ID                       : 10
      Duration                       : 2 min 26 s
      Channel(s)                     : 2 channels
      Channel positions              : Front: L R
      Sampling rate                  : 44.1 kHz
      Frame rate                     : 43.066 FPS (1024 spf)
      Compression mode               : Lossy
      
      • 对比表:
        项目 大小 分辨率 编码 视频码率 Writing application
        Bili官番 386MB 1920 x 1080 AVC_High@L4.1 2004 kb/s Coded by New Bilibili Transcoder v1.2
        优酷 440MB 1920 x 1080 AVC_High@L4 未知(总码率3136kb/s)
      • 图:

        优酷1080P样图1

      • 个人感觉:除了颜色上的稍微的差别,就没啥差别了。
    • Bili《夏目友人账 第五季》第一集 1080P vs 优酷《夏目友人账 第五季》 1080P:

        • 优酷1080P参数:
      General
      Complete name                  : F:\工程\Bili1080P检测\第01话 一如既往的样子—在线播放—《夏目友人帐 第五季》—动漫—优酷网,视频高清在线观看 (1).flv
      Format                         : Flash Video
      File size                      : 55.7 MiB
      Duration                       : 2 min 24 s
      Overall bit rate               : 3 224 kb/s
      Tagging application            : modified by youku.com in 20111202
      
      Video
      Format                         : AVC
      Format/Info                    : Advanced Video Codec
      Format profile                 : High@L4
      Format settings, CABAC         : Yes
      Format settings, ReFrames      : 3 frames
      Codec ID                       : 7
      Duration                       : 2 min 24 s
      Width                          : 1 920 pixels
      Height                         : 1 080 pixels
      Display aspect ratio           : 16:9
      Frame rate mode                : Constant
      Frame rate                     : 23.976 (23976/1000) FPS
      Color space                    : YUV
      Chroma subsampling             : 4:2:0
      Bit depth                      : 8 bits
      Scan type                      : Progressive
      
      Audio
      Format                         : AAC
      Format/Info                    : Advanced Audio Codec
      Format profile                 : LC
      Codec ID                       : 10
      Duration                       : 2 min 24 s
      Channel(s)                     : 2 channels
      Channel positions              : Front: L R
      Sampling rate                  : 44.1 kHz
      Frame rate                     : 43.066 FPS (1024 spf)
      Compression mode               : Lossy
      
      • 对比表:
        项目 大小 分辨率 编码 视频码率 Writing application
        Bili官番 462 MB 1920 x 1080 AVC_High@L4.1 2979 kb/s Coded by New Bilibili Transcoder v1.2
        优酷 478 MB 1920 x 1080 AVC_High@L4 未知(总码率3058kb/s)
      • 图:

        BiliBili 1080P

      • 个人感觉:依然没有多大差别。。。

BiliBili番剧1080P vs 字幕/压制组提供的1080P

  • 这里的字幕/压制组的作品是特指使用BD Rip的。一般BDRip是在番剧完结后,整部发出来,而B站的1080P的集中在新番,所以这两者收录的1080P番剧范围是错开的。交集的部分不算多,但还是有一些。
  • PS:嗯。怎么感觉这项有点殴打小朋友的感觉呢w。完全不是一个Level的。所以这里就举例一个看看就好。
  • bili《狼与香辛料 第一季》第一集1080P vs [Henshin]《狼与香辛料 第一季》第一集1080P

      • Henshin参数:
    General
    Unique ID                      : 171490022513858916023018287941893178816 (0x8103C6E658B253369CA6EC5DE8B345C0)
    Complete name                  : F:\工程\Bili1080P检测\[Henshin]_Ookami_to_Koushinryou_01_(BD_x264_1920x1080_FLAC).mkv
    Format                         : Matroska
    Format version                 : Version 2
    File size                      : 1.51 GiB
    Duration                       : 23 min 50 s
    Overall bit rate mode          : Variable
    Overall bit rate               : 9 078 kb/s
    Encoded date                   : UTC 2011-03-23 17:19:40
    Writing application            : mkvmerge v4.4.0 ('Die Wiederkehr') built on Oct 31 2010 21:52:48
    Writing library                : libebml v1.0.0 + libmatroska v1.0.0
    
    Video
    ID                             : 1
    Format                         : AVC
    Format/Info                    : Advanced Video Codec
    Format profile                 : High@L4.1
    Format settings, CABAC         : Yes
    Format settings, ReFrames      : 4 frames
    Codec ID                       : V_MPEG4/ISO/AVC
    Duration                       : 23 min 50 s
    Nominal bit rate               : 8 460 kb/s
    Width                          : 1 920 pixels
    Height                         : 1 080 pixels
    Display aspect ratio           : 16:9
    Frame rate mode                : Constant
    Frame rate                     : 23.976 (24000/1001) FPS
    Color space                    : YUV
    Chroma subsampling             : 4:2:0
    Bit depth                      : 8 bits
    Scan type                      : Progressive
    Bits/(Pixel*Frame)             : 0.170
    Title                          : 狼と一張羅
    Writing library                : x264 core 114 r1913 5fd3dce
    Encoding settings              : cabac=1 / ref=4 / deblock=1:-1:-1 / analyse=0x3:0x133 / me=umh / subme=10 / psy=1 / psy_rd=0.80:0.00 / mixed_ref=1 / me_range=32 / chroma_me=1 / trellis=2 / 8x8dct=1 / cqm=0 / deadzone=21,11 / fast_pskip=0 / chroma_qp_offset=-2 / threads=6 / sliced_threads=0 / nr=0 / decimate=0 / interlaced=0 / constrained_intra=0 / bframes=8 / b_pyramid=2 / b_adapt=2 / b_bias=0 / direct=3 / weightb=1 / open_gop=0 / weightp=2 / keyint=240 / keyint_min=24 / scenecut=40 / intra_refresh=0 / rc=2pass / mbtree=0 / bitrate=8460 / ratetol=1.0 / qcomp=0.70 / qpmin=0 / qpmax=23 / qpstep=4 / cplxblur=20.0 / qblur=0.5 / ip_ratio=1.40 / pb_ratio=1.30 / aq=1:0.90
    Language                       : Japanese
    Default                        : Yes
    Forced                         : No
    Color range                    : Limited
    Matrix coefficients            : BT.709
    
    Audio
    ID                             : 2
    Format                         : FLAC
    Format/Info                    : Free Lossless Audio Codec
    Codec ID                       : A_FLAC
    Duration                       : 23 min 50 s
    Bit rate mode                  : Variable
    Channel(s)                     : 2 channels
    Channel positions              : Front: L R
    Sampling rate                  : 48.0 kHz
    Bit depth                      : 16 bits
    Title                          : FLAC 2ch
    Writing library                : libFLAC 1.2.1 (UTC 2007-09-17)
    Language                       : Japanese
    Default                        : Yes
    Forced                         : No
    
    • 对比表:
      项目 大小 分辨率 编码 视频码率 Writing application
      Bili官番 385 MB 1920 x 1080 AVC_High@L4 2488 kb/s Coded by New Bilibili Transcoder v1.2
      Henshin 1.51 GB 1920 x 1080 AVC_High@L4.1 8460 kb/s mkvmerge v4.4.0 (‘Die Wiederkehr’) built on Oct 31 2010 21:52:48
    • 图(不点评w):

      Bili 1080P



嗯。以上就是全部内容了。最后个人总结一下:B站的1080P是有实质性的提升,在只增加150M左右的大小就将分辨率翻了一倍(毕竟太大了也不是所有人都乐于接受的),并且将画质提升了一些。但是还没到值得收藏,提升到让我想因此氪金的程度w。不过“大会员”有赠送政策。Lv4以上就有送个把月的大会员,不用白不用~就当作是一个额外福利咯~。

 

3 Comments

  1. 两万米高空的大象

    话说我对比了下Henshin压制的狼辛与蓝光原盘,发现两者比较明显的区别在颜色与对比度,原盘的颜色比较鲜艳,对比度比较高,Henshin的则比较暗淡柔和些,同时Henshin版也处理了一些原盘的一些色带等一些瑕疵,嗨呀,好纠结啊(。・∀・)ノ゙

发表评论

电子邮件地址不会被公开。 必填项已用*标注

This site uses Akismet to reduce spam. Learn how your comment data is processed.